Author Topic: Dolly Ki Doli (2015) - WEBHD-Rip 720p x264 AVC 5CH ESuB - [ M2Tv ExclusivE ]  (Read 425 times)

0 Members and 1 Guest are viewing this topic.

HEM

  • Administrator
  • Newbie

  • Offline
  • *****
  • 4
  • Reputation:
    1
    • View Profile


[cover]http://i.imgur.com/igPCcYQ.jpg[/cover]



Code: [Select]
Year.............: (2015)
IMDB Link........: http://www.imdb.com/title/tt4332114/
Gener............: Comedy, Romance
Cast.............: Sonam Kapoor | Saif Ali Khan | Rajkummar Rao

Source...........: -* M2TV *-
Ripper...........: -* TuHiN *-

Format                      : Matroska
Format version              : Version 4 / Version 2
File size                   : 1.50 GiB
Duration                    : 1h 37mn
Overall bit rate            : 2 213 Kbps



[ Video ]

Format                      : AVC
Format/Info                 : Advanced Video Codec
Format profile              : High@L3.1
Format settings, CABAC      : Yes
Format settings, ReFrames   : 4 frames
Codec ID                    : V_MPEG4/ISO/AVC
Duration                    : 1h 37mn
Bit rate                    : 1 827 Kbps
Width                       : 1 280 pixels
Height                      : 544 pixels
Display aspect ratio        : 2.35:1
Frame rate mode             : Constant
Frame rate                  : 24.000 fps
Color space                 : YUV
Chroma subsampling          : 4:2:0
Bit depth                   : 8 bits
Scan type                   : Progressive
Bits/(Pixel*Frame)          : 0.109
Stream size                 : 1.21 GiB (81%)
Writing library             : x264


[ Audio ]

Format                      : AC-3
Format/Info                 : Audio Coding 3
Mode extension              : CM (complete main)
Format settings, Endianness : Big
Codec ID                    : A_AC3
Duration                    : 1h 37mn
Bit rate mode               : Constant
Bit rate                    : 384 Kbps
Channel(s)                  : 6 channels
Channel positions           : Front: L C R, Side: L R, LFE
Sampling rate               : 48.0 KHz
Bit depth                   : 16 bits
Compression mode            : Lossy
Stream size                 : 266 MiB (17%)
















:download:


http://uptobox.com/pi5xjuncc3ur

http://clicknupload.com/bmd11vj3wqx1

http://usersfiles.com/loeh1qg5gwmk

https://userscloud.com/pp2vyey6jso8