Author Topic: The Fate Of The Furious 8 (2017) Hindi DD5.1 640 Kbps AC3 & DTS DD 5.1 1509 Kbps  (Read 541 times)

0 Members and 1 Guest are viewing this topic.

☣Thε Wiитεя Sold¡εя™

  • Administrator
  • Jr. Member

  • Offline
  • *****
  • 57
  • Reputation:
    2
  • Gender
    Male

    Male
  • Personal Text
    Hello friends...
    • View Profile
    • Free-Links
The Fate Of The Furious 8 (2017) Hindi DD5.1 640 Kbps AC3 And DTS DD 5.1 1509 Kbps Audio - Ranvijay



AC3 DD 5.1 Audio Info

Quote
Audio
Format                                   : AC-3
Format/Info                              : Audio Coding 3
Format settings, Endianness              : Big
Duration                                 : 2 h 15 min
Bit rate mode                            : Constant
Bit rate                                 : 640 kb/s
Channel(s)                               : 6 channels
Channel positions                        : Front: L C R, Side: L R, LFE
Sampling rate                            : 48.0 kHz
Frame rate                               : 31.250 FPS (1536 SPF)
Bit depth                                : 16 bits
Compression mode                         : Lossy
Stream size                              : 622 MiB (100%)
Service kind                             : Complete Main


DTS Audio Info

Quote
Audio
Format                                   : DTS
Format/Info                              : Digital Theater Systems
Mode                                     : 16
Format settings, Endianness              : Big
Duration                                 : 2 h 15 min
Bit rate mode                            : Constant
Bit rate                                 : 1 509 kb/s
Channel(s)                               : 6 channels
Channel positions                        : Front: L C R, Side: L R, LFE
Sampling rate                            : 48.0 kHz
Frame rate                               : 93.750 FPS (512 SPF)
Bit depth                                : 24 bits
Compression mode                         : Lossy
Stream size                              : 1.43 GiB

 :download:

DTS Audio

Quote
https://drive.google.com/open?id=0B9_UUDxg-BIYY1d3QlhqQ29NZm8

AC-3 Dd 5.1 Audio

Quote
https://drive.google.com/open?id=0B9_UUDxg-BIYekdRZV80RnpRT2M

Password:- sharespark.net@@@@


Don't walk as you are king, walk as you don't care who the king is....!!
Never argue with an idiot. They drag you down to their level and then beat you with experience?
« Last Edit: September 12, 2017, 12:08:11 am by ☣Thε Wiитεя Sold¡εя™ »