Author Topic: Project Almanac (2015) BDRip 1080p x264 Dual Audio [Hindi-Eng] YsB TeaM FL  (Read 253 times)

0 Members and 1 Guest are viewing this topic.

☣Thε Wiитεя Sold¡εя™

  • Administrator
  • Jr. Member

  • Offline
  • *****
  • 57
  • Reputation:
    2
  • Gender
    Male

    Male
  • Personal Text
    Hello friends...
    • View Profile
    • Free-Links

Project Almanac (2015) BDRip 1080p x264 Dual Audio [Hindi-Eng] YsB TeaM FL




 :info:
General
Complete name : Project Almanac (2015) BDRip 1080p x264 Dual Audio [Hindi-Eng] YsB TeaM FL.mkv
Format : Matroska
Format version : Version 4 / Version 2
File size : 2.85 GiB
Duration : 1h 46mn
Overall bit rate : 3 841 Kbps
Movie name : Project Almanac (2014) BDRip 1080p x264 Dual Audio [Hindi-Eng] YsB TeaM FL

Video
ID : 1
Format : AVC
Format/Info : Advanced Video Codec
Format profile : High@L4.1
Format settings, CABAC : Yes
Format settings, ReFrames : 4 frames
Codec ID : V_MPEG4/ISO/AVC
Duration : 1h 46mn
Bit rate : 3 072 Kbps
Width : 1 920 pixels
Height : 800 pixels
Display aspect ratio : 2.40:1
Frame rate mode : Constant
Frame rate : 23.976 fps
Color space : YUV
Chroma subsampling : 4:2:0
Bit depth : 8 bits
Scan type : Progressive
Bits/(Pixel*Frame) : 0.083
Stream size : 2.22 GiB (78%)
Title : YsB TeaM FL

Audio #1
ID : 2
Format : AC-3
Format/Info : Audio Coding 3
Mode extension : CM (complete main)
Format settings, Endianness : Big
Codec ID : A_AC3
Duration : 1h 46mn
Bit rate mode : Constant
Bit rate : 384 Kbps
Channel(s) : 6 channels
Channel positions : Front: L C R, Side: L R, LFE
Sampling rate : 48.0 KHz
Compression mode : Lossy
Stream size : 292 MiB (10%)
Title : YsB TeaM FL
Language : Hindi
Default : Yes
Forced : Yes

Audio #2
ID : 3
Format : AC-3
Format/Info : Audio Coding 3
Mode extension : CM (complete main)
Format settings, Endianness : Big
Codec ID : A_AC3
Duration : 1h 46mn
Bit rate mode : Constant
Bit rate : 384 Kbps
Channel(s) : 6 channels
Channel positions : Front: L C R, Side: L R, LFE
Sampling rate : 48.0 KHz
Compression mode : Lossy
Stream size : 292 MiB (10%)
Title : YsB TeaM FL
Language : English
Default : No
Forced : No

Text #1
ID : 4
Format : UTF-8
Codec ID : S_TEXT/UTF8
Codec ID/Info : UTF-8 Plain Text
Title : YsB TeaM FL [SDH]
Language : English
Default : No
Forced : No

Text #2
ID : 5
Format : UTF-8
Codec ID : S_TEXT/UTF8
Codec ID/Info : UTF-8 Plain Text
Title : YsB TeaM FL [SDH-COLORED]
Language : English
Default : No
Forced : No

Menu
00:00:00.000 : en:00:00:00.000
00:07:56.309 : en:00:07:56.309
00:15:20.211 : en:00:15:20.211
00:23:49.803 : en:00:23:49.803
00:31:15.665 : en:00:31:15.665
00:39:19.274 : en:00:39:19.274
00:46:58.274 : en:00:46:58.274
00:54:11.957 : en:00:54:11.957
01:00:55.485 : en:01:00:55.485
01:09:43.304 : en:01:09:43.304
01:16:24.371 : en:01:16:24.371
01:23:07.733 : en:01:23:07.733
01:32:20.618 : en:01:32:20.618
01:41:19.323 : en:01:41:19.323


 :ss:




Thanks.
TeaM FL - ☠ RαмBσ ✥, ☣Thε Wiитεя Sold¡εя™


Thanks.
VISION For Hindi Audio


 :download:
| UptoboxMultiUpload |