Show Posts

This section allows you to view all posts made by this member. Note that you can only see posts made in areas you currently have access to.


Messages - ☣Thε Wiитεя Sold¡εя™

Pages: [1] 2 3 4
1
Kung Fu Yoga 2017 720p BluRay x264 [Dual Audio] [Hindi DD 5.0 + Eng 2.0] Esub - Ranvijay



Quote
Format                                   : Matroska
Format version                           : Version 4 / Version 2
File size                                : 1 014 MiB
Duration                                 : 1 h 47 min
Overall bit rate                         : 1 324 kb/s

Video
ID                                       : 1
Format                                   : AVC
Format/Info                              : Advanced Video Codec
Format profile                           : High@L4.1
Format settings, CABAC                   : Yes
Format settings, RefFrames               : 12 frames
Codec ID                                 : V_MPEG4/ISO/AVC
Duration                                 : 1 h 47 min
Bit rate                                 : 1 010 kb/s
Width                                    : 1 280 pixels
Height                                   : 536 pixels
Display aspect ratio                     : 2.40:1
Frame rate mode                          : Constant
Frame rate                               : 24.000 FPS
Color space                              : YUV
Chroma subsampling                       : 4:2:0
Bit depth                                : 8 bits
Scan type                                : Progressive
Bits/(Pixel*Frame)                       : 0.061
Stream size                              : 742 MiB (73%)
Default                                  : Yes
Forced                                   : No

Audio #1
ID                                       : 2
Format                                   : AC-3
Format/Info                              : Audio Coding 3
Format settings, Endianness              : Big
Codec ID                                 : A_AC3
Duration                                 : 1 h 47 min
Bit rate mode                            : Constant
Bit rate                                 : 224 kb/s
Channel(s)                               : 6 channels
Channel positions                        : Front: L C R, Side: L R, LFE
Sampling rate                            : 48.0 kHz
Frame rate                               : 31.250 FPS (1536 SPF)
Bit depth                                : 16 bits
Compression mode                         : Lossy
Delay relative to video                  : 2 s 0 ms
Stream size                              : 171 MiB (17%)
Language                                 : Hindi
Default                                  : Yes
Forced                                   : No

Audio #2
ID                                       : 3
Format                                   : AAC
Format/Info                              : Advanced Audio Codec
Format profile                           : LC
Codec ID                                 : A_AAC
Duration                                 : 1 h 47 min
Bit rate                                 : 128 kb/s
Channel(s)                               : 2 channels
Channel positions                        : Front: L R
Sampling rate                            : 96.0 kHz
Frame rate                               : 93.750 FPS (1024 SPF)
Compression mode                         : Lossy
Stream size                              : 98.0 MiB (10%)
Language                                 : English
Default                                  : No
Forced                                   : No

Text
ID                                       : 4
Format                                   : UTF-8
Codec ID                                 : S_TEXT/UTF8
Codec ID/Info                            : UTF-8 Plain Text
Duration                                 : 1 h 30 min
Bit rate                                 : 52 b/s
Count of elements                        : 1381
Stream size                              : 34.9 KiB (0%)
Language                                 : English
Default                                  : Yes
Forced                                   : No

:ss:









:download:

Quote
http://www.indishare.me/lfx1zt80dfwz
http://uptobox.com/zr2i3xvpgy73
https://filescdn.com/go0zbwjsccli
https://bdupload.info/fmqslh632um8
https://clicknupload.org/gk0l4x8fle0p
https://userscloud.com/0gc3kfqof0a7
http://usersfiles.com/y9nbepewoiwv
https://www.multiup.org/download/e00da81c485783ca316cd8878aaf2cbe/Kung_Fu_Yoga_2017_720p_BluRay_x264__Dual_Audio___Hindi_DD_5.0___Eng_2.0__Esub_-_Ranvijay.mkv
https://sendit.cloud/vetkuxfqutfc
https://openload.co/f/TNpOhgXtgvE/Kung_Fu_Yoga_2017_720p_BluRay_x264_%5BDual_Audio%5D_%5BHindi_DD_5.0_%2B_Eng_2.0%5D_Esub_-_Ranvijay.mkv
http://filerio.in/szd9bqinpa95
https://tusfiles.net/hm55l7bhbdew
Sample



Don't walk as you are king, walk as you don't care who the king is....!!
Never argue with an idiot. They drag you down to their level and then beat you with experience?

2
:title:

Guardians of the Galaxy Vol. 2 (2017) Dual Audio [Hindi DD5.1(Org)+English] 720p BluRay x264 ESubs - ExtraMovies



:info:

Quote
Format : Matroska
Format version : Version 4 / Version 2
File size : 1.16 GiB
Duration : 2 h 15 min
Overall bit rate : 1 225 kb/s
Movie name : ExtraMovies.ws - Guardians of the Galaxy Vol 2 (2017) 720p BRRip Dual Audio Hindi DD5.1(Org)+Eng x264 AAC ESubs
Encoded date : UTC 2017-08-22 06:47:46
Writing application : mkvmerge v10.0.0 ('To Drown In You') 64bit
Writing library : libebml v1.3.4 + libmatroska v1.4.5

Video
ID : 1
Format : AVC
Format/Info : Advanced Video Codec
Format profile : High@L4.1
Format settings, CABAC : Yes
Format settings, ReFrames : 8 frames
Codec ID : V_MPEG4/ISO/AVC
Duration : 2 h 15 min
Bit rate : 999 kb/s
Width : 1 280 pixels
Height : 544 pixels
Display aspect ratio : 2.35:1
Frame rate mode : Constant
Frame rate : 23.976 (23976/1000) FPS
Color space : YUV
Chroma subsampling : 4:2:0
Bit depth : 8 bits
Scan type : Progressive
Bits/(Pixel*Frame) : 0.060
Stream size : 970 MiB (82%)
Default : Yes
Forced : No
Color range : Limited
Color primaries : BT.709
Transfer characteristics : BT.709
Matrix coefficients : BT.709

Audio #1
ID : 2
Format : AAC
Format/Info : Advanced Audio Codec
Format profile : HE-AAC / LC
Codec ID : A_AAC
Duration : 2 h 15 min
Bit rate : 128 kb/s
Channel(s) : 6 channels
Channel positions : Front: L C R, Side: L R, LFE
Sampling rate : 48.0 kHz / 24.0 kHz
Frame rate : 23.438 FPS (1024 spf)
Compression mode : Lossy
Delay relative to video : -105 ms
Stream size : 124 MiB (10%)
Language : Hindi
Default : Yes
Forced : No

Audio #2
ID : 3
Format : AAC
Format/Info : Advanced Audio Codec
Format profile : HE-AAC / LC
Codec ID : A_AAC
Duration : 2 h 15 min
Bit rate : 96.0 kb/s
Channel(s) : 6 channels
Channel positions : Front: L C R, Side: L R, LFE
Sampling rate : 48.0 kHz / 24.0 kHz
Frame rate : 23.438 FPS (1024 spf)
Compression mode : Lossy
Delay relative to video : -105 ms
Stream size : 93.2 MiB (8%)
Title : ExtraMovies.ws
Language : English
Default : No
Forced : No

Text
ID : 4
Format : UTF-8
Codec ID : S_TEXT/UTF8
Codec ID/Info : UTF-8 Plain Text
Duration : 2 h 14 min
Bit rate : 72 b/s
Count of elements : 1961
Stream size : 71.5 KiB (0%) 
Language : English
Default : Yes
Forced : No

:ss:






:sample:

http://www.indishare.me/oh8ihtnf92z3

:download:

https://www.multiup.org/download/4eef94019c6d109c90e7228f1faadb0a/Guardians_of_the_Galaxy_Vol._2__2017__Dual_Audio__Hindi_DD5.1_Org__English__720p_BluRay_x264_ESubs_-_ExtraMovies

3
Alien Covenant 2017 720p BluRay x264 Dual-Audio[Hindi-English][AAC.5.1] - Hon3y - 1.10 GB



:info:

Quote
General
Format                      : Matroska
Format version              : Version 4 / Version 2
File size                   : 1.10 GiB
Duration                    : 2 h 2 min
Overall bit rate            : 1 291 kb/s

Video
ID                          : 1
Format                      : AVC
Format/Info                 : Advanced Video Codec
Format profile              : High@L4.1
Format settings, CABAC      : Yes
Format settings, RefFrames  : 12 frames
Codec ID                    : V_MPEG4/ISO/AVC
Duration                    : 2 h 2 min
Bit rate                    : 1 000 kb/s
Width                       : 1 280 pixels
Height                      : 536 pixels
Display aspect ratio        : 2.40:1
Frame rate mode             : Constant
Frame rate                  : 23.976 (24000/1001) FPS
Color space                 : YUV
Chroma subsampling          : 4:2:0
Bit depth                   : 8 bits
Scan type                   : Progressive
Bits/(Pixel*Frame)          : 0.061
Stream size                 : 873 MiB (77%)
Title                       : Hon3yHD

Audios Credits: Rohit Sharma - Thank u bro

Audio #1
ID                          : 2
Format                      : AAC
Format/Info                 : Advanced Audio Codec
Format profile              : LC
Codec ID                    : A_AAC
Duration                    : 2 h 2 min
Bit rate                    : 192 kb/s
Channel(s)                  : 6 channels
Channel positions           : Front: L C R, Side: L R, LFE
Sampling rate               : 48.0 kHz
Frame rate                  : 46.875 FPS (1024 SPF)
Compression mode            : Lossy
Delay relative to video     : 9 ms
Stream size                 : 167 MiB (15%)
Title                       : Hindi AAC 5.1 192Kbps - Hon3y
Language                    : Hindi
Default                     : Yes
Forced                      : Yes

Audio #2
ID                          : 3
Format                      : AAC
Format/Info                 : Advanced Audio Codec
Format profile              : LC
Codec ID                    : A_AAC
Duration                    : 2 h 2 min
Bit rate                    : 96.0 kb/s
Channel(s)                  : 6 channels
Channel positions           : Front: L C R, Side: L R, LFE
Sampling rate               : 48.0 kHz
Frame rate                  : 46.875 FPS (1024 SPF)
Compression mode            : Lossy
Delay relative to video     : 9 ms
Stream size                 : 83.4 MiB (7%)
Title                       : English AAC 5.1 96Kbps - Hon3y
Language                    : English
Default                     : No
Forced                      : No

Text
ID                          : 4
Format                      : UTF-8
Codec ID                    : S_TEXT/UTF8
Codec ID/Info               : UTF-8 Plain Text
Duration                    : 1 h 54 min
Bit rate                    : 53 b/s
Count of elements           : 1709
Stream size                 : 44.4 KiB (0%)
Title                       : English - Hon3y
Language                    : English
Default                     : No
Forced                      : No

Menu
00:00:00.000                : :Chapter 01
00:04:47.662                : :Chapter 03
00:13:07.495                : :Chapter 05
00:18:11.924                : :Chapter 07
00:22:46.448                : :Chapter 09
00:27:51.169                : :Chapter 11
00:33:12.907                : :Chapter 13
00:37:18.736                : :Chapter 15
00:42:19.912                : :Chapter 17
00:47:43.694                : :Chapter 19
00:52:04.371                : :Chapter 21
00:55:56.269                : :Chapter 23
01:00:17.447                : :Chapter 25
01:06:20.643                : :Chapter 27
01:11:25.030                : :Chapter 29
01:16:35.882                : :Chapter 31
01:21:10.031                : :Chapter 33
01:28:18.793                : :Chapter 35
01:31:21.559                : :Chapter 37
01:34:52.436                : :Chapter 39
01:39:23.666                : :Chapter 41
01:43:35.876                : :Chapter 43
01:50:49.309                : :Chapter 45
01:55:27.754                : :Chapter 47
02:02:03.065                : :Chapter 48

:ss:








:download:

Quote
http://www.indishare.me/uqq8zcleqd7p
http://uptobox.com/j35bepb3x22c
https://bdupload.info/47g9i3u8m6q8
https://clicknupload.org/dy5htep71ki1
https://userscloud.com/o5hrc8h2m2y3
http://usersfiles.com/xpjn7lqux7b6
https://www.multiup.org/download/eb0b64d9d4987b5f03040dfae2515b94/ACHON3y1gb.mkv
https://openload.co/f/lQvejgn3IGs/ACHON3y1gb.mkv
http://filerio.in/odbjjm9bzh4a
http://watchvideo.us/kws958ks2pyq.html
http://go4up.com/dl/264bb89f9b500c
http://jheberg.net/download/achon3y1gb-2/
http://upfile.mobi/raHIiftftaY
https://9xplay.net/r2i7bru83nb5
https://uploadx.link/o7r80i0ewri2
https://downace.com/fyTD
https://www.flashx.tv/zvj6z4cjy1jz.html
https://mirrorace.com/m/atvV
https://upload.mn/jwgwrk25dm87



Don't walk as you are king, walk as you don't care who the king is....!!
Never argue with an idiot. They drag you down to their level and then beat you with experience?

4
The Fate Of The Furious 8 (2017) Hindi DD5.1 640 Kbps AC3 And DTS DD 5.1 1509 Kbps Audio - Ranvijay



AC3 DD 5.1 Audio Info

Quote
Audio
Format                                   : AC-3
Format/Info                              : Audio Coding 3
Format settings, Endianness              : Big
Duration                                 : 2 h 15 min
Bit rate mode                            : Constant
Bit rate                                 : 640 kb/s
Channel(s)                               : 6 channels
Channel positions                        : Front: L C R, Side: L R, LFE
Sampling rate                            : 48.0 kHz
Frame rate                               : 31.250 FPS (1536 SPF)
Bit depth                                : 16 bits
Compression mode                         : Lossy
Stream size                              : 622 MiB (100%)
Service kind                             : Complete Main


DTS Audio Info

Quote
Audio
Format                                   : DTS
Format/Info                              : Digital Theater Systems
Mode                                     : 16
Format settings, Endianness              : Big
Duration                                 : 2 h 15 min
Bit rate mode                            : Constant
Bit rate                                 : 1 509 kb/s
Channel(s)                               : 6 channels
Channel positions                        : Front: L C R, Side: L R, LFE
Sampling rate                            : 48.0 kHz
Frame rate                               : 93.750 FPS (512 SPF)
Bit depth                                : 24 bits
Compression mode                         : Lossy
Stream size                              : 1.43 GiB

 :download:

DTS Audio

Quote
https://drive.google.com/open?id=0B9_UUDxg-BIYY1d3QlhqQ29NZm8

AC-3 Dd 5.1 Audio

Quote
https://drive.google.com/open?id=0B9_UUDxg-BIYekdRZV80RnpRT2M

Password:- sharespark.net@@@@


Don't walk as you are king, walk as you don't care who the king is....!!
Never argue with an idiot. They drag you down to their level and then beat you with experience?

5
Guardians of the Galaxy Vol. 2 (2017) Hindi Audio DD 5.1 @640 KBPS $ @320 Kbps - INVINCIBLE



Guardians of the Galaxy Vol. 2 (2017) Hindi Audio 640 KBPS

640 Kbps

:info:

Quote
Audio
Format                                   : AC-3
Format/Info                              : Audio Coding 3
Format settings, Endianness              : Big
Duration                                 : 2 h 15 min
Bit rate mode                            : Constant
Bit rate                                 : 640 kb/s
Channel(s)                               : 6 channels
Channel positions                        : Front: L C R, Side: L R, LFE
Sampling rate                            : 48.0 kHz
Frame rate                               : 31.250 FPS (1536 SPF)
Bit depth                                : 16 bits
Compression mode                         : Lossy
Stream size                              : 622 MiB (100%)
Service kind                             : Complete Main

:download:

Quote
https://sendit.cloud/cdmzzk2fdpdp
https://clicknupload.org/4r7fdfupbw98
https://drive.google.com/open?id=0B9_UUDxg-BIYWE9DTW9DVThzVzg
https://mega.nz/#!ncVk3BzA!aKj3IYNn9zlNiFZMi18EQht-S-KjA0jUR5gEXqHdXLU

PGS
http://www25.zippyshare.com/v/Wp6v9cfB/file.html

320 Kbps

:info:

Quote
Audio
Format                                   : AC-3
Format/Info                              : Audio Coding 3
Format settings, Endianness              : Big
Duration                                 : 2 h 15 min
Bit rate mode                            : Constant
Bit rate                                 : 320 kb/s
Channel(s)                               : 6 channels
Channel positions                        : Front: L C R, Side: L R, LFE
Sampling rate                            : 48.0 kHz
Frame rate                               : 31.250 FPS (1536 SPF)
Bit depth                                : 16 bits
Compression mode                         : Lossy
Stream size                              : 311 MiB (100%)
Service kind                             : Complete Main

:download:

Quote
https://drive.google.com/open?id=0B9_UUDxg-BIYWUZCeUlPODBydkk


Never argue with an idiot. They drag you down to their level and then beat you with experience?

7
Alien Covenant 2017 Org Untouched Bluray DD 5.1 448 Kbps Hindi-Tamil-Telugu Audio By ~Rohit



Alien Covenant 2017 Org Untouched Bluray DD 5.1 448 Kbps Hindi Audio By ~Rohit.ac3 391.1 MB

:download:

Quote
https://mega.nz/#!llUBwYwb!FZT4rSzWzm-_JhMHMZTh5t4upbHRCT7CsZVzP1xWU6c
https://drive.google.com/open?id=0B2iXTaTMXZCWeGh4bjhLQzJUZHc
http://www.indishare.me/gkbmygypi88j
http://uptobox.com/siwc2qhmab1p
https://filescdn.com/2w1marv3gx32
https://bdupload.info/rewsptlcdds6
https://clicknupload.org/qvx4et5zrwek
https://userscloud.com/qkwph9izbmfs
http://usersfiles.com/seopxczy53wr
https://www.multiup.org/download/8523732b75e6f7e0f0e9f268ca75debe/_Hindi_Alien_Covenant_2017_Org_Untouched_Bluray_DD_5.1_448_Kbps_Hindi_Audio_By_-Rohit.ac3
https://openload.co/f/rV4KIf3f4FA/%5BHindi%5DAlien_Covenant_2017_Org_Untouched_Bluray_DD_5.1_448_Kbps_Hindi_Audio_By_-Rohit.ac3
http://filerio.in/373zbbkik4hw
https://tusfiles.net/v23uwcyvcamt
http://go4up.com/dl/56abcdf87332e1
http://jheberg.net/download/hindialien-covenant-2017-org-untouched-bluray-dd-5/

Alien Covenant 2017 Org Untouched Bluray DD 5.1 448 Kbps Tamil Audio By ~Rohit .ac3 391.1 MB

:download:

Quote
https://mega.nz/#!Ag9ABLxJ!EEGkM3FIEzlpqCHPHVlov6rCJVldXGQjQIOGSI7F_FA
https://drive.google.com/open?id=0B2iXTaTMXZCWMy1sVl8wZjA4LU0
http://www.indishare.me/ftmhj8oy3r59
http://uptobox.com/0by7y836g3uh
https://filescdn.com/ozmtlpf06rsz
https://bdupload.info/hm66ygn4w8bj
https://clicknupload.org/xvaadmvel7m8
https://userscloud.com/5gffphxdbg68
http://usersfiles.com/r699bp4gf346
https://www.multiup.org/download/4d31d5dd0c896b50d5bd42fc4c1cee3f/_Tamil_Alien_Covenant_2017_Org_Untouched_Bluray_DD_5.1_448_Kbps_Tamil_Audio_By_-Rohit.ac3
https://sendit.cloud/zid9de65thq9
https://openload.co/f/KBfCU_7SPPQ/%5BTamil%5DAlien_Covenant_2017_Org_Untouched_Bluray_DD_5.1_448_Kbps_Tamil_Audio_By_-Rohit.ac3
https://1fichier.com/?4crxj2clv5
http://filerio.in/boe2aydfv84o
https://tusfiles.net/1fp2y0lsbcuc

Alien Covenant 2017 Org Untouched Bluray DD 5.1 448 Kbps Telagu Audio By ~Rohit .ac3 391.1 MB

:download:

Quote
https://mega.nz/#!AgMUwS6L!HgAsbPzQIazDxyjfXTdnAJts9fEx0-nwDu2d8eyhZtQ
https://drive.google.com/open?id=0B2iXTaTMXZCWZHppTXJOSUJadkU
http://www.indishare.me/byn8bwfv5gvo
http://uptobox.com/f56rofwqirjw
https://filescdn.com/x2lp6r33ob6m
https://bdupload.info/f4tfaxb5wyjs
https://clicknupload.org/fzvha05s791n
https://userscloud.com/wrom33votf9f
http://usersfiles.com/wofk1lcwytab
https://www.multiup.org/download/ed19310f7e008a6a1d4ed35679489ef8/_Telagu_Alien_Covenant_2017_Org_Untouched_Bluray_DD_5.1_448_Kbps_Telagu_Audio_By_-Rohit.ac3
https://openload.co/f/upcnsTg_4GM/%5BTelagu%5DAlien_Covenant_2017_Org_Untouched_Bluray_DD_5.1_448_Kbps_Telagu_Audio_By_-Rohit.ac3
https://1fichier.com/?lxvgryipa1
http://filerio.in/oh5yrrmglm9y
https://tusfiles.net/ubx3khjo7gjh

Alien Covenant 2017 Org Bluray PGS English Subtitle By ~Rohit .sup 22.3 MB

:download:

Quote
https://drive.google.com/open?id=0B2iXTaTMXZCWZzM4Qjk5UTF1NUU
https://drive.google.com/open?id=0B2iXTaTMXZCWZzM4Qjk5UTF1NUU
http://www.indishare.me/fe632eva82nb
http://uptobox.com/wex81psez8ld
https://filescdn.com/589sbvnu71kj
https://bdupload.info/putr5tcohc0u
https://clicknupload.org/4ktwfr1r58ge
https://userscloud.com/3z0dqaoz9hex
http://usersfiles.com/494fp0sgmcbv
https://www.multiup.org/download/8510937e427cc3b92a9e93019a63cf3f/_English_Alien_Covenant_2017_Org_Bluray_PGS_English_Subtitle_By_-Rohit.sup
https://sendit.cloud/bq7ut8j78hqc
https://openload.co/f/Pk0S9DFTRqc/%5BEnglish%5DAlien_Covenant_2017_Org_Bluray_PGS_English_Subtitle_By_-Rohit.sup
https://1fichier.com/?c7rfuu29jh
http://filerio.in/bbnajgm8vqc0
https://tusfiles.net/tk9ppl1due56

Alien Covenant 2017 Org Bluray PGS Hindi Subtitle By ~Rohit .sup.sup 17.9 MB

:download:

Quote
https://mega.nz/#!c5sAGCTb!mxNR6ejUBR-awd0T0F_P4ExO6CFyj8cT_MnxzchOukA
https://drive.google.com/open?id=0B2iXTaTMXZCWTzUtS0s2UE4wMTA
http://www.indishare.me/udajzxvq0ylm
http://uptobox.com/kq7i1d9p8r9z
https://filescdn.com/ufzjxv4kehu4
https://bdupload.info/coulh8nu3oss
https://clicknupload.org/kiy6ug5b7ooy
https://userscloud.com/3w1d6j4nn22a
http://usersfiles.com/gjzk57re7pcw
https://www.multiup.org/download/5c198d2630c7717566816b55502a0d14/_Hindi_Alien_Covenant_2017_Org_Bluray_PGS_Hindi_Subtitle_By_-Rohit.sup.sup
https://sendit.cloud/zb25bg6bmo5l
https://openload.co/f/4MZWtOSCStU/%5BHindi%5DAlien_Covenant_2017_Org_Bluray_PGS_Hindi_Subtitle_By_-Rohit.sup.sup
https://1fichier.com/?cn6eebxvaa
http://filerio.in/5pk7rj3cms3j
https://tusfiles.net/21syarg2m2ch

224 KBPS Hindi Audio

:download:

Quote
http://www.indishare.me/k7o18rj3j79q
http://uptobox.com/mcv2xftqrrnm
https://filescdn.com/5ty94jc3u92z
https://bdupload.info/reuqw1doxf1e
https://clicknupload.org/nwbeek4cmpqi
https://userscloud.com/0d7vlf0iuo7n
http://usersfiles.com/9yyyskobdt1i
https://www.multiup.org/download/24d64f3e79110cda6670de372b60f015/_Hindi_Alien_Covenant_2017_Org_Bluray_DD_5.1_224_Kbps_Hindi_Audio_By_-Ranvijay.ac3
https://openload.co/f/kOcdX7AkObQ/%5BHindi%5DAlien_Covenant_2017_Org_Bluray_DD_5.1_224_Kbps_Hindi_Audio_By_-Ranvijay.ac3
http://filerio.in/6mz7xdclryu4
https://tusfiles.net/yhey2zc15mof
http://go4up.com/dl/e5324a7dd37629
http://jheberg.net/download/hindialien-covenant-2017-org-bluray-dd-51-224-kbps/


Don't walk as you are king, walk as you don't care who the king is....!!
Never argue with an idiot. They drag you down to their level and then beat you with experience?

8



Hindi Audio Dolby Digital 5.1Ch @ 640Kbps Original BD
Avengers Age of Ultron (2015)
[Hindi DD 5.1Ch] ~ PyZ






:info:


===================================================================
Avengers Age of Ultron (2015) 720p BluRay [Hindi DD 5.1Ch] ~ PyZ
===================================================================

-------------------------------------------------------------------
                              General Information                             
-------------------------------------------------------------------

Genre...................: Action, Adventure, Sci-Fi
iMDB....................: http://www.imdb.com/title/tt2395427/
iMDb Rating.............: 7.8/10
Release Date............: 24 April 2015   (India)
Movie name..............: Avengers: Age of Ultron (2015)
Tagline.................: A new age begins.


General
=======
Format..................: Matroska
Format Version..........: Version 4 / Version 2
File Size...............: 2.15 GB
Duration................: 02:21:19
Overall bit rate........: 2 155 Kbps
Subtitle................: English [PGS]

Video
=======
Container...............: V_MPEG4/AVC
Video Codec Type........: x264
Video Bitrate...........: 1 500 Kbps
Resolution..............: 1 280 x 536
Display aspect ratio....: 2.40:1
FPS.....................: 23.976 Fps
Scan type...............: Progressive
Quality Factor (QF).....: 0.091
Stream size.............: 2.15 GB
Title...................: Avengers Age of Ultron (2015) 720p BluRay [Hindi DD 5.1Ch] ~ PyZ

Audio
=======
Language................: Hindi
Audio Format............: AC-3
Bitrate.................: 640 Kbps
Channels................: Dolby Digital 5.1Ch BluRay ~ PyZ
Channel positions.......: Front: L C R, Side: L R, LFE
Sampling rate...........: 48,000
Bit depth...............: 16 bits
Stream size.............: 646 MB


:ss:









 :download:

https://userscloud.com/4eahtzgx9zbi

http://uptobox.com/5aau56la8gyx

https://tusfiles.net/virdjys6jjys

http://www.multiup.org/download/18345b0a6851cdbf15a3c98d09b0ad33/Avengers_Age_of_Ultron__2015__720p_BluRay__Hindi_DD_5.1Ch____PyZ.mkv



10





:info:

Code: [Select]
General

Complete name : Avengers Age of Ultron (2015) 1080p[Dual Audio][ENG(5.1)-HINDI(5.1)]~{PHDR}~
Format : Matroska
Format version : Version 4 / Version 2
File size : 5.00 GiB
Duration : 2h 21mn
Overall bit rate : 5 065 Kbps
Movie name : Avengers Age of Ultron (2015) 1080p[Dual Audio][ENG(5.1)-HINDI(5.1)]~{PHDR}~
DURATION : 02:12:50.379000000
NUMBER_OF_BYTES

Video
ID : 1
Format : AVC
Format/Info : Advanced Video Codec
Format profile : High@L4.1
Format settings, CABAC : Yes
Format settings, ReFrames : 5 frames
Codec ID : V_MPEG4/ISO/AVC
Duration : 2h 21mn
Bit rate : 3 972 Kbps
Width : 1 920 pixels
Height : 808 pixels
Display aspect ratio : 2.40:1
Frame rate mode : Constant
Frame rate : 23.976 fps
Color space : YUV
Chroma subsampling : 4:2:0
Bit depth : 8 bits
Scan type : Progressive
Bits/(Pixel*Frame) : 0.107
Stream size : 3.83 GiB (77%)
Language : English
Default : Yes
Forced : No
Color primaries : BT.709
Transfer characteristics : BT.709
Matrix coefficients : BT.709

Audio #1
ID : 2
Format : AC-3
Format/Info : Audio Coding 3
Mode extension : CM (complete main)
Format settings, Endianness : Big
Codec ID : A_AC3
Duration : 2h 21mn
Bit rate mode : Constant
Bit rate : 640 Kbps
Channel(s) : 6 channels
Channel positions : Front: L C R, Side: L R, LFE
Sampling rate : 48.0 KHz
Bit depth : 16 bits
Compression mode : Lossy
Stream size : 647 MiB (13%)
Title : Bluray~{PHDR}~
Language : Hindi
Default : Yes
Forced : No

Audio #2
ID : 3
Format : AC-3
Format/Info : Audio Coding 3
Mode extension : CM (complete main)
Format settings, Endianness : Big
Codec ID : A_AC3
Duration : 2h 21mn
Bit rate mode : Constant
Bit rate : 448 Kbps
Channel(s) : 6 channels
Channel positions : Front: L C R, Side: L R, LFE
Sampling rate : 48.0 KHz
Bit depth : 16 bits
Compression mode : Lossy
Stream size : 453 MiB (9%)
Title : Bluray~{PHDR}~
Language : English
Default : No
Forced : No

Text
ID : 4
Format : PGS
Muxing mode : zlib
Codec ID : S_HDMV/PGS
Codec ID/Info : The same subtitle format used on BDs/HD-DVDs
Title : Bluray SDH
Language : English
Default : Yes
Forced : No


:ss:





 :download:

https://uptobox.com/iwp63xf1suox

http://www.tusfiles.net/8zzopjw5u2ja

http://www.multiup.org/download/ce08286df15542804f9a56f63b82d12d/Avengers_Age_of_Ultron__2015__1080p_Dual_Audio__ENG_5.1_-HINDI_5.1____PHDR__.mkv



11

Project Almanac (2015) BDRip 1080p x264 Dual Audio [Hindi-Eng] YsB TeaM FL




 :info:
General
Complete name : Project Almanac (2015) BDRip 1080p x264 Dual Audio [Hindi-Eng] YsB TeaM FL.mkv
Format : Matroska
Format version : Version 4 / Version 2
File size : 2.85 GiB
Duration : 1h 46mn
Overall bit rate : 3 841 Kbps
Movie name : Project Almanac (2014) BDRip 1080p x264 Dual Audio [Hindi-Eng] YsB TeaM FL

Video
ID : 1
Format : AVC
Format/Info : Advanced Video Codec
Format profile : High@L4.1
Format settings, CABAC : Yes
Format settings, ReFrames : 4 frames
Codec ID : V_MPEG4/ISO/AVC
Duration : 1h 46mn
Bit rate : 3 072 Kbps
Width : 1 920 pixels
Height : 800 pixels
Display aspect ratio : 2.40:1
Frame rate mode : Constant
Frame rate : 23.976 fps
Color space : YUV
Chroma subsampling : 4:2:0
Bit depth : 8 bits
Scan type : Progressive
Bits/(Pixel*Frame) : 0.083
Stream size : 2.22 GiB (78%)
Title : YsB TeaM FL

Audio #1
ID : 2
Format : AC-3
Format/Info : Audio Coding 3
Mode extension : CM (complete main)
Format settings, Endianness : Big
Codec ID : A_AC3
Duration : 1h 46mn
Bit rate mode : Constant
Bit rate : 384 Kbps
Channel(s) : 6 channels
Channel positions : Front: L C R, Side: L R, LFE
Sampling rate : 48.0 KHz
Compression mode : Lossy
Stream size : 292 MiB (10%)
Title : YsB TeaM FL
Language : Hindi
Default : Yes
Forced : Yes

Audio #2
ID : 3
Format : AC-3
Format/Info : Audio Coding 3
Mode extension : CM (complete main)
Format settings, Endianness : Big
Codec ID : A_AC3
Duration : 1h 46mn
Bit rate mode : Constant
Bit rate : 384 Kbps
Channel(s) : 6 channels
Channel positions : Front: L C R, Side: L R, LFE
Sampling rate : 48.0 KHz
Compression mode : Lossy
Stream size : 292 MiB (10%)
Title : YsB TeaM FL
Language : English
Default : No
Forced : No

Text #1
ID : 4
Format : UTF-8
Codec ID : S_TEXT/UTF8
Codec ID/Info : UTF-8 Plain Text
Title : YsB TeaM FL [SDH]
Language : English
Default : No
Forced : No

Text #2
ID : 5
Format : UTF-8
Codec ID : S_TEXT/UTF8
Codec ID/Info : UTF-8 Plain Text
Title : YsB TeaM FL [SDH-COLORED]
Language : English
Default : No
Forced : No

Menu
00:00:00.000 : en:00:00:00.000
00:07:56.309 : en:00:07:56.309
00:15:20.211 : en:00:15:20.211
00:23:49.803 : en:00:23:49.803
00:31:15.665 : en:00:31:15.665
00:39:19.274 : en:00:39:19.274
00:46:58.274 : en:00:46:58.274
00:54:11.957 : en:00:54:11.957
01:00:55.485 : en:01:00:55.485
01:09:43.304 : en:01:09:43.304
01:16:24.371 : en:01:16:24.371
01:23:07.733 : en:01:23:07.733
01:32:20.618 : en:01:32:20.618
01:41:19.323 : en:01:41:19.323


 :ss:




Thanks.
TeaM FL - ☠ RαмBσ ✥, ☣Thε Wiитεя Sold¡εя™


Thanks.
VISION For Hindi Audio


 :download:
| UptoboxMultiUpload |




12
Dubbed Audio's / Project Almanac (2015) Org DD 5.1 Ch Hindi AC-3 - Vision
« on: September 05, 2015, 10:49:08 am »

Project Almanac (2015) Org DD 5.1 Ch Hindi AC-3 - Vision



:info:

Code: [Select]
Audio
Format                      : AC-3
Format/Info                 : Audio Coding 3
Mode extension              : CM (complete main)
Format settings, Endianness : Big
Duration                    : 1h 46mn
Bit rate mode               : Constant
Bit rate                    : 448 Kbps
Channel(s)                  : 6 channels
Channel positions           : Front: L C R, Side: L R, LFE
Sampling rate               : 48.0 KHz
Compression mode            : Lossy
Stream size                 : 340 MiB (100%)

:download:



Project Almanac (2015) Hindi.ac3 - 340.3 MB

Project Almanac (2015) Hindi.ac3 -  340.3 MB

Project Almanac (2015) Hindi.ac3 -  340.3 MB




13
Dubbed Audio's / Big Game 2014 Bluray Original Hindi Audio 5.1 Ch AC-3 PyZ
« on: September 05, 2015, 10:48:04 am »
Big Game 2014 Bluray Original Hindi Audio 5.1 Ch AC-3 PyZ



:info:
Code: [Select]
Audio
Format                      : AC-3
Format/Info                 : Audio Coding 3
Mode extension              : CM (complete main)
Format settings, Endianness : Big
Duration                    : 1h 30mn
Bit rate mode               : Constant
Bit rate                    : 448 Kbps
Channel(s)                  : 6 channels
Channel positions           : Front: L C R, Side: L R, LFE
Sampling rate               : 48.0 KHz
Compression mode            : Lossy
Stream size                 : 290 MiB (100%)

:download:



Big Game 2014 Bluray Original Hindi Audio 5.1 Ch AC-3 - 290.0 MB

Big Game 2014 Bluray Original Hindi Audio 5.1 Ch AC-3 - 290.0 MB




14


:info:

Format : AC-3
Format/Info : Audio Coding 3
Codec ID : A_AC3
Duration : 2h 00mn
Bit rate : 448 Kbps
Channel(s) : 6 channels
Channel positions : Front: L C R, Side: L R, LFE
Language : HinDi


:download:



http://uptobox.com/ho5ujuq5sz1i


http://www.uppit.com/ytqqdogtcvnr


http://clicknupload.com/l7obtfdl6zm9


https://userscloud.com/w6l9jusmsj8r


http://www.uploaded.net/file/zi3m96bu


http://www.solidfiles.com/d/e7feb90587/

15
Mad Max Fury Road (2015) 1080p[Dual Audio][ENG(5.1)-HINDI(5.1)]~{PHDR}~






Storyline :

In a stark desert landscape where humanity is broken, two rebels just might be able to restore order: Max, a man of action and of few words, and Furiosa, a woman of action who is looking to make it back to her childhood homeland.



:info:

Code: [Select]
General

Complete name : Mad Max Fury Road (2015) 1080p[Dual Audio][ENG(5.1)-HINDI(5.1)]~{PHDR}~
Format : Matroska
Format version : Version 4 / Version 2
File size : 4.01 GiB
Duration : 2h 0mn
Overall bit rate : 4 773 Kbps
Movie name : Mad Max Fury Road (2015) 1080p[Dual Audio][ENG(5.1)-HINDI(5.1)]~{PHDR}~


Video
ID : 1
Format : AVC
Format/Info : Advanced Video Codec
Format profile : High@L4.1
Format settings, CABAC : Yes
Format settings, ReFrames : 4 frames
Codec ID : V_MPEG4/ISO/AVC
Duration : 2h 0mn
Bit rate : 3 679 Kbps
Width : 1 920 pixels
Height : 800 pixels
Display aspect ratio : 2.40:1
Frame rate mode : Constant
Frame rate : 23.976 fps
Color space : YUV
Chroma subsampling : 4:2:0
Bit depth : 8 bits
Scan type : Progressive
Bits/(Pixel*Frame) : 0.100
Stream size : 3.02 GiB (75%)
Writing library : x264 core 146 r2538kMod 121396c
Default : Yes
Forced : No

Audio #1
ID : 2
Format : AC-3
Format/Info : Audio Coding 3
Mode extension : CM (complete main)
Format settings, Endianness : Big
Codec ID : A_AC3
Duration : 2h 0mn
Bit rate mode : Constant
Bit rate : 640 Kbps
Channel(s) : 6 channels
Channel positions : Front: L C R, Side: L R, LFE
Sampling rate : 48.0 KHz
Bit depth : 16 bits
Compression mode : Lossy
Stream size : 551 MiB (13%)
Title : Bluray ~{PHDR}~
Language : English
Default : Yes
Forced : No

Audio #2
ID : 3
Format : AC-3
Format/Info : Audio Coding 3
Mode extension : CM (complete main)
Format settings, Endianness : Big
Codec ID : A_AC3
Duration : 2h 0mn
Bit rate mode : Constant
Bit rate : 448 Kbps
Channel(s) : 6 channels
Channel positions : Front: L C R, Side: L R, LFE
Sampling rate : 48.0 KHz
Bit depth : 16 bits
Compression mode : Lossy
Stream size : 386 MiB (9%)
Title : Bluray ~{PHDR}~
Language : Hindi
Default : No
Forced : No

Text #1
ID : 4
Format : PGS
Muxing mode : zlib
Codec ID : S_HDMV/PGS
Codec ID/Info : The same subtitle format used on BDs/HD-DVDs
Title : Bluray
Language : English
Default : Yes
Forced : No

Text #2
ID : 5
Format : PGS
Muxing mode : zlib
Codec ID : S_HDMV/PGS
Codec ID/Info : The same subtitle format used on BDs/HD-DVDs
Title : Bluray
Language : Hindi
Default : No
Forced : No



:ss:





:download:

https://tusfiles.net/56fyexajb3qz

http://uptobox.com/me733y06dwr0

http://www.multiup.org/download/82fa21292fde4dfd11ba05b5e123f66e/Mad_Max_Fury_Road__2015__1080p_Dual_Audio__ENG_5.1_-HINDI_5.1____PHDR__.mkv

Pages: [1] 2 3 4